Убийство свидетеля (1990) DVDRip-AVC от KORSAR

Если Вы не хотите скачивать, Вы всегда можете посмотреть онлайн, просто нажмите кнопку ниже :

Открыть плеер

Torrent_Bot

Торрент-Бот
Бот форума
4 Окт 2016
5
1.004
20
#1

Жанр: Детектив, экранизация
Год выпуска: 1990
Продолжительность: 01:13:47
Режиссёр: Эдуард Гаврилов
В ролях: Борис Шувалов, Сергей Роженцев, Георгий Бурков, Людмила Чурсина, Тамара Сёмина, Вячеслав Невинный, Николай Пеньков (II), Мария Селянская, Роман Греков, Оксана Фомичёва, Сергей Вельяминов, Сергей Гурзо (младший), Юрий Кукес, Татьяна Кох, Василий Бургман

Описание: Кто поставит точку в цепи загадочных убийств? Расследуя дерзкое вооруженное ограбление универмага, милиция выходит на администратора Мосэстрады Игоря Софина, след которого ведет в Сочи. Там на море, происходит серия загадочных убийств. Но это только начало захватывающей криминальной истории о мафии, контролирующей сеть столичных магазинов и ломбардов по скупке золота. По повести Юрия Маслова "Каракурт".

Релиз от:

Кодек: х264
Качество: SATRip-AVC
Видео: MPEG-4 AVC, [email protected], 25 fps, 2267 Кбит/с
Звук: AC3, 2 ch, 192 Кбит/с



Инфо файл

  • x264 [info]: frame I:593 Avg QP:18.05 size: 69201
    x264 [info]: frame P:26161 Avg QP:19.74 size: 30261
    x264 [info]: frame B:83934 Avg QP:21.74 size: 5343
Общее
Уникальный идентификатор : 181783712224647698454156543178611229774 (0x88C244FC7AC3636DB5BEB691CBBA044E)
Полное имя : D:Убийство свидетеля_1990-SATRip-AVC_KORSAR.mkv
Формат : Matroska
Версия формата : Version 2
Размер файла : 1,29 Гбайт
Продолжительность : 1 ч. 13 м.
Общий поток : 2509 Кбит/сек
Дата кодирования : UTC 2018-06-09 20:40:56
Программа кодирования : mkvmerge v5.8.0 ('No Sleep / Pillow') built on Sep 2 2012 15:37:04
Библиотека кодирования : libebml v1.2.3 + libmatroska v1.3.0

Видео
Идентификатор : 1
Формат : AVC
Формат/Информация : Advanced Video Codec
Профиль формата : [email protected]
Параметр CABAC формата : Да
Параметр RefFrames формата : 14 кадров
Идентификатор кодека : V_MPEG4/ISO/AVC
Продолжительность : 1 ч. 13 м.
Битрейт : 2267 Кбит/сек
Ширина : 624 пикселя
Высота : 574 пикселя
Соотношение сторон : 16:10
Соотношение сторон в оригинале : 16:10
Режим частоты кадров : Постоянный
Частота кадров : 25,000 кадров/сек
Цветовое пространство : YUV
Субдискретизация насыщенности : 4:2:0
Битовая глубина : 8 бит
Тип развёртки : Прогрессивная
Бит/(Пиксели*Кадры) : 0.253
Размер потока : 1,17 Гбайт (90%)
Библиотека кодирования : x264 core 152 r2851kMod ba24899
Настройки программы : cabac=1 / ref=14 / deblock=1:-2:-1 / analyse=0x3:0x133 / me=umh / subme=10 / psy=1 / fade_compensate=0.00 / psy_rd=1.05:0.10 / mixed_ref=1 / me_range=32 / chroma_me=1 / trellis=2 / 8x8dct=1 / cqm=0 / deadzone=21,11 / fast_pskip=1 / chroma_qp_offset=-3 / threads=12 / lookahead_threads=3 / sliced_threads=0 / nr=0 / decimate=1 / interlaced=0 / bluray_compat=0 / constrained_intra=0 / bframes=10 / b_pyramid=2 / b_adapt=2 / b_bias=0 / direct=1 / weightb=1 / open_gop=0 / weightp=2 / keyint=250 / keyint_min=25 / scenecut=40 / intra_refresh=0 / rc=crf / mbtree=0 / crf=17.5000 / qcomp=0.63 / qpmin=0 / qpmax=39 / qpstep=4 / ip_ratio=1.40 / pb_ratio=1.30 / aq=1:0.80
Язык : English
Default : Да
Forced : Нет
Цветовой диапазон : Limited
Основные цвета : BT.601 PAL
Характеристики трансфера : BT.470 System B, BT.470 System G
Коэффициенты матрицы : BT.601

Аудио
Идентификатор : 2
Формат : AC-3
Формат/Информация : Audio Coding 3
Параметр Endianness формата : Big
Идентификатор кодека : A_AC3
Продолжительность : 1 ч. 13 м.
Вид битрейта : Постоянный
Битрейт : 192 Кбит/сек
Каналы : 2 канала
Расположение каналов : Front: L R
Частота : 48,0 КГц
Частота кадров : 31,250 кадров/сек (1536 SPF)
Битовая глубина : 16 бит
Метод сжатия : С потерями
Задержка видео : 16 мс.
Размер потока : 101 Мбайт (8%)
Язык : Russian
Default : Да
Forced : Нет
 

Вложения

  • 13,9 KB Просмотры: 0
    Личеров 0
    Сидеров 0
    Файлов 1
    Объем 1,3 GB

Привет!

Мы группа людей которые решили помочь другим в решении их проблем, а так же пользователям с поиском самых свежих и качественных инфопродуктов. За 4 с небольшим месяца мы создали этот форум на который заходят ежедневно тысячи человек и посещаемость постоянно растёт. Мы создали панель лицензирования для защиты PHP скриптов от воровства и SEO панель для мониторинга наших сайтов и выбора верной стратегии их развития. Мы надеемся что то что мы создали пригодится Вам и возможно Вы поможете нам развиваться и совершенствоваться вместе с Вами.

Статистика форума

Темы
325.991
Сообщения
344.446
Пользователи
22.973
Новый пользователь
maxansk

Приложения форума для iOS и Android


У ркн там нет власти ;)
Гостевуха
Помощь Пользователи
    sntk Chat Bot: sntk покинул(а) комнату.