Возвращение «Святого Луки» (1970) DVDRip-AVC от KORSAR

Если Вы не хотите скачивать, Вы всегда можете посмотреть онлайн, просто нажмите кнопку ниже :

Открыть плеер

Torrent_Bot

Торрент-Бот
Бот форума
4 Окт 2016
5
1.004
20
#1


Возвращение «Святого Луки»




Страна: СССР
Жанр: Детектив
Год выпуска: 1970
Продолжительность: 01:30:11
Перевод: Не требуется

Режиссер: Анатолий Бобровский
В ролях: Всеволод Санаев, Владислав Дворжецкий, Олег Басилашвили, Екатерина Васильева, Наталья Рычагова
Валерий Рыжаков, Владимир Смирнов, Валерий Беляков, Паул Буткевич, Дмитрий Масанов

Описание: Бежавший из заключения вор-рецидивист похищает картину Франса Хальса «Святой Лука» и пытается продать ее иностранному «туристу».
В поединок с матерым преступником вступает полковник Зорин…



Кодек: х264
Качество: DVDRip-AVC
Видео: MPEG-4 AVC, 2351 Кбит/с, 714х[email protected], 25 fps,
Аудио: АС3, 2 сh, 192 Кбит/с
Субтитры: Нет
Главы: Есть



Инфо файл
x264 [info]: frame I:726 Avg QP:15.36 size: 61327
x264 [info]: frame P:33241 Avg QP:17.83 size: 26760
x264 [info]: frame B:101315 Avg QP:19.21 size: 6475

Общее
Уникальный идентификатор : 185884572024612632598075687140199948229 (0x8BD810FC1034781AA662837DD446DFC5)
Полное имя : J:сссрВозвращение Святого Луки 1970_DVDRip-AVC_KORSAR.mkv
Формат : Matroska
Версия формата : Version 2
Размер файла : 1,60 Гбайт
Продолжительность : 1 ч. 30 м.
Общий поток : 2545 Кбит/сек
Дата кодирования : UTC 2018-12-24 22:15:27
Программа кодирования : mkvmerge v5.8.0 ('No Sleep / Pillow') built on Sep 2 2012 15:37:04
Библиотека кодирования : libebml v1.2.3 + libmatroska v1.3.0

Видео
Идентификатор : 1
Формат : AVC
Формат/Информация : Advanced Video Codec
Профиль формата : [email protected]
Настройки формата : CABAC / 15 Ref Frames
Параметр CABAC формата : Да
Параметр RefFrames формата : 15 кадров
Идентификатор кодека : V_MPEG4/ISO/AVC
Продолжительность : 1 ч. 30 м.
Битрейт : 2351 Кбит/сек
Ширина : 714 пикселей
Высота : 332 пикселя
Соотношение сторон : 2,25:1
Соотношение сторон в оригинале : 2,25:1
Режим частоты кадров : Постоянный
Частота кадров : 25,000 кадров/сек
Цветовое пространство : YUV
Субдискретизация насыщенности : 4:2:0
Битовая глубина : 8 бит
Тип развёртки : Прогрессивная
Бит/(Пиксели*Кадры) : 0.397
Размер потока : 1,45 Гбайт (90%)
Библиотека кодирования : x264 core 152 r2851kMod ba24899
Настройки программы : cabac=1 / ref=15 / deblock=1:-2:-1 / analyse=0x3:0x133 / me=umh / subme=11 / psy=1 / fade_compensate=0.00 / psy_rd=1.05:0.10 / mixed_ref=1 / me_range=48 / chroma_me=1 / trellis=2 / 8x8dct=1 / cqm=0 / deadzone=21,11 / fast_pskip=0 / chroma_qp_offset=-3 / threads=10 / lookahead_threads=2 / sliced_threads=0 / nr=0 / decimate=0 / interlaced=0 / bluray_compat=0 / constrained_intra=0 / bframes=10 / b_pyramid=2 / b_adapt=2 / b_bias=0 / direct=3 / weightb=1 / open_gop=0 / weightp=2 / keyint=250 / keyint_min=25 / scenecut=40 / intra_refresh=0 / rc_lookahead=40 / rc=2pass / mbtree=0 / bitrate=2351 / ratetol=1.0 / qcomp=0.60 / qpmin=0 / qpmax=39 / qpstep=4 / cplxblur=20.0 / qblur=0.5 / vbv_maxrate=50000 / vbv_bufsize=62500 / nal_hrd=none / filler=0 / ip_ratio=1.25 / pb_ratio=1.30 / aq=1:1.00
Язык : English
Default : Да
Forced : Нет
Цветовой диапазон : Limited
Основные цвета : BT.601 PAL
Характеристики трансфера : BT.470 System B, BT.470 System G
Коэффициенты матрицы : BT.470 System B, BT.470 System G

Аудио
Идентификатор : 2
Формат : AC-3
Формат/Информация : Audio Coding 3
Параметр Endianness формата : Big
Идентификатор кодека : A_AC3
Продолжительность : 1 ч. 30 м.
Вид битрейта : Постоянный
Битрейт : 192 Кбит/сек
Каналы : 2 канала
Расположение каналов : Front: L R
Частота : 48,0 КГц
Частота кадров : 31,250 кадров/сек (1536 SPF)
Битовая глубина : 16 бит
Метод сжатия : С потерями
Размер потока : 124 Мбайт (8%)
Язык : Russian
Default : Да
Forced : Нет

Меню
00:00:00.000 : en:Chapter 1
00:07:03.840 : en:Chapter 2
00:14:18.720 : en:Chapter 3
00:24:34.080 : en:Chapter 4
00:27:36.960 : en:Chapter 5
00:34:16.320 : en:Chapter 6
00:42:20.640 : en:Chapter 7
00:52:06.240 : en:Chapter 8
01:01:18.720 : en:Chapter 9
01:05:13.920 : en:Chapter 10
01:19:57.600 : en:Chapter 11
01:22:36.480 : en:Chapter 12

 

Вложения

  • 17 KB Просмотры: 0
    Личеров 0
    Сидеров 0
    Файлов 1
    Объем 1,6 GB

Привет!

Мы группа людей которые решили помочь другим в решении их проблем, а так же пользователям с поиском самых свежих и качественных инфопродуктов. За 4 с небольшим месяца мы создали этот форум на который заходят ежедневно тысячи человек и посещаемость постоянно растёт. Мы создали панель лицензирования для защиты PHP скриптов от воровства и SEO панель для мониторинга наших сайтов и выбора верной стратегии их развития. Мы надеемся что то что мы создали пригодится Вам и возможно Вы поможете нам развиваться и совершенствоваться вместе с Вами.

Статистика форума

Темы
324.972
Сообщения
343.313
Пользователи
22.858
Новый пользователь
ilyale7

Онлайн статистика

Пользователей онлайн
39
Гостей онлайн
250
Всего посетителей
289

Приложения форума для iOS и Android


У ркн там нет власти ;)
Гостевуха
Помощь Пользователи
    sntk Chat Bot: sntk покинул(а) комнату.